Listen to Traveling Wilburys, Vol. 1 full album lyrics from lyrics007.com 2 here, but don't worry, everything stands on its places. In 1990, the album won the Grammy for Best Rock Performance by a Duo or Group. The Traveling Wilburys, Vol. You can also see them at the Internet Archive. Traveling Wilburys Vol. Provare di nuovo. Audio CD. 3. With ‘The Traveling Wilburys Vol 1’, Bob Dylan, George Harrison, Tom Petty, Roy … The Traveling Wilburys was big enough to convince the group to record a second album, cheerfully and incongruously titled Vol. It was released in October 1988 as their debut single and as the opening track of their album Traveling Wilburys Vol. This expanded & remastered edition of the Wilburys’ GRAMMY-winning 1988 debut album, Traveling Wilburys Volume 1, is now available after being out-of-print for over a decade. Features Song Lyrics for Traveling Wilburys's Vol 1 album. It was also covered by Dozi/Kurt Darren/Mel Botes, Andy Cornfoot, Alan Mills [GB], Mick Rogers and other artists. 1 to enjoy in your home or car, or gift it to another music lover! Riprova. 1' (spines) / 'Volume One' (disc). The Traveling Wilburys, Vol. October 17: The Traveling Wilburys released their debut album Volume 1 in 1988 Posted on October 17, 2020 by Hallgeir Olsen The Traveling Wilburys (sometimes shortened to the Wilburys) were a British-American supergroup consisting of Bob Dylan, George Harrison, Jeff … Oddly enough I didn't know much about this short-lived band. The Traveling Wilburys, Vol. 3. Siamo spiacenti. Si è verificato un problema durante il salvataggio delle preferenze relative ai cookie. Wiki | Format: CD, Year: 2008, Label: Rhino (R2 255036), Barcode: 081227997403, Length: 42:47 Beware! Vol. 1 Traveling Wilburys. The Traveling Wilburys would convene once again as a four-piece in 1990 with the cheekily titled Vol. AccurateRip summary. Utilizza un altro modo per la condivisione. Anche terzi autorizzati utilizzano queste tecnologie in relazione alla nostra visualizzazione di annunci pubblicitari. 1 is the debut studio album by the English-American supergroup Traveling Wilburys, comprising George Harrison, Jeff Lynne, Bob Dylan, Roy Orbison and Tom Petty.It was released in October 1988 to commercial success and critical acclaim. Piccoli prezzi ogni giorno. Music Reviews: Traveling Wilburys Vol. Traveling Wilburys Collection [2 CD/DVD Combo] ... 5.0 out of 5 stars This is the first album by the Traveling Wilburys, five brothers who formed a musical group. 1.The band members again adopted pseudonyms for their contributions, using new names from the fictitious Wilbury brothers. IRC | The album won the GRAMMY for Best Rock Performance By A Duo Or Group With Vocals, and introduced the Wilburys’ classics ‘Handle With Care’, ‘End Of The Line’ and ‘Heading For The Light’, among others. 3 will be reissued on 180 gram vinyl on October 4 as part of Record Store Day’s Vinyl Tuesday.. Brought to you by MetaBrainz Foundation and our sponsors and supporters. Peak level 98.6 % Extraction speed 5.0 X Range quality 100.0 % Test CRC 2EC88BEE Copy CRC 2EC88BEE Copy OK. No errors occurred. The Traveling Wilburys, Vol. Be the first to write a review. 1 [Picture Disc] George Harrison. 3 is the second and final studio album by the Traveling Wilburys, a group consisting of George Harrison, Jeff Lynne, Bob Dylan and Tom Petty.It was released on October 29, 1990 as the follow-up to their 1988 debut, Traveling Wilburys Vol. Barnes & Noble® has the best selection of Pop Adult Contemporary CDs. 1, in 1988. The Traveling Wilburys Collection is a box set compilation album by the British-American supergroup the Traveling Wilburys.It comprises the two studio albums recorded by the band in 1988 and 1990, with additional bonus tracks, and a DVD containing their music videos and a documentary about the group. [Booklet:] Wilbury Record Company is a subdivision of the Trans-Wilbury Corporation of Bulgaria. Twitter | Compra Traveling Wilburys 1. Traveling Wilburys Volume 1 CD - used in good condition Returnable if found to be not playable … Album Packaging: Jewel Case Status: Official … Traveling Wilburys, Vol. See the the cover photos, artwork, and latest images for Traveling Wilburys, Vol. 1 starts the album and then it is followed by vol. 3: Concord / Universal ... Find The Traveling Wilburys discography, albums and singles on AllMusic. 2 is Tom Petty's album Fool Moon Fever … 3, in 1990. Genre: Pop Rock. Traveling Wilburys, Vol. Pirated compact discs damage your … Includes Album Cover, Release Year, and User Reviews. 1 by Traveling Wilburys released in 1988 via Wilbury. 4.8 out of 5 stars 1,173. The box set was released on 11 June 2007 by Rhino, in association with Wilbury Records. The Traveling Wilburys Vol. Vinyl Music Lp Vinyl Vinyl Records George Harrison Cd Cover Album Covers Traveling Wilburys Vol 1 Jeremiah Johnson Roy Orbison. Following Orbison's death in December 1988, the Wilburys released a second album, which they titled Traveling Wilburys Vol. Craft Recordings have announced that a limited edition 12” picture disc of the unforgettable 1988 album The Traveling Wilburys Vol. Blog | Use beta site. Free Download Traveling Wilburys - Traveling Wilburys Vol. Sembra che WhatsApp non sia installato sul tuo cellulare. Bug Tracker | Il tuo indirizzo di consegna: Stati Uniti, Pubblicità definita in base agli interessi. No one has reviewed this release group yet. Cover Art provided by the Cover Art Archive. Find Traveling Wilburys Traveling Wilburys, Vol. Traveling Wilburys Volume 1 on CD. 1 for free online and get recommendations for similar music. 1 and The Traveling Wilburys, Vol. 3, two years later despite the death of Orbison. ... Chris Cornell’s Posthumous Covers Album ‘No One Sings Like You Anymore’ Released Vinyl. The Traveling Wiburys, vol. These images provided by the Cover Art Archive. 3 in Discogs. 3 (both Mystery Girl and Petty's 1989 solo debut Full … Although Harrison envisaged a series of Wilburys albums and a film about the band, produced through his company HandMade, the group's final release was in February 1991. Reviewed in the United States on August 20, 2020. Donate | The group, with the aid of session drummer Jim Keltner, recorded their first record, The Traveling Wilburys Vol. Some people consider that vol. When this collaboration, "Handle with Care", was deemed too good for such a limited release, the group agreed to record a full album, titled Traveling Wilburys Vol. Check out our album review of Artist's Traveling Wilburys Vol. Filename G:\CD\Traveling Wilburys – Vol. Completa la tua Collezione su Traveling Wilburys. Traveling Wilburys originally released End of the Line written by George Harrison, Jeff Lynne, Roy Orbison, Tom Petty and Bob Dylan and Traveling Wilburys released it on the album Traveling Wilburys Vol 1 in 1988. Forums | Utilizziamo cookie e altre tecnologie simili per migliorare la tua esperienza di acquisto, per fornire i nostri servizi, per capire come i nostri clienti li utilizzano in modo da poterli migliorare e per visualizzare annunci pubblicitari. Interview Traveling Wilburys Vol 1 Radio Classic Albums Jeff Lynne, George Harrison, Tom Petty 1 (1988) Retail CD Covers and Album Art available on AllCDCovers Acquista il CD album Vol 1 (Remastered) di The Traveling Wilburys in offerta; album e dischi in vendita online a prezzi scontati su La Feltrinelli. Year Album Label 1 on Rolling Stone.com. ‘The Traveling Wilburys Vol 1’: The Start Of A Beautiful Journey. Traveling Wilburys Volume 3 was recorded without Orbison, who died in December 1988, but its songs are still full of the heart and spirit that made their musical brotherhood the stuff of legend. 1: Rhino 1990 : The Traveling Wilburys, Vol. The remaining quartet regrouped in 1990 for a second album that was flippantly titled The Traveling Wilburys, Vol. © 2020, Amazon.com, Inc. o società affiliate. 1 ~ Release by Traveling Wilburys (see all versions of this release, 11 available) Overview; Disc IDs; Cover Art; Aliases; Tags; Details; Edit; Cover Art. Album Info: Featuring legendary artists Bob Dylan, George Harrison, Jeff Lynne, Roy Orbison, and Tom Petty, the Traveling Wilburys were a one-of-a-kind musical phenomenon. And although it yielded some catchy songs, such as "She's My Baby" and "Poor House," the group just didn't pack the same punch that they had with Orbison in the mix. 1. Amazon ha riscontrato un errore. [Cover rear:] Manufactured by Warner Bros. Music, Inc. Scopri pubblicazioni, recensioni, crediti, brani, e molto altro su Traveling Wilburys - Vol. Title variation: 'Vol. Buy The Traveling Wilburys's album titled The Traveling Wilburys, Vol. Track 1 accurately ripped (confidence 200) [A4259F6A] (AR v2) Track 2 accurately ripped (confidence 200) [E2235F66] (AR v2) It was when I saw them perform recently on … 1 by Traveling Wilburys. Although Harrison had long planned to start such a band, the project came about through happenstance. $13.49. ... full condensed blue highlight denotes album pick Filter Discography By Albums Compilations Singles & EPs All. 1 ~ Release by Traveling Wilburys (see all versions of this release, 14 available) Overview; Disc IDs (1) Cover Art (3) Aliases; Tags; Details; Edit; Edit Relationships; Cover Art. Manufactured in Germany by TELDEC Record Service GmbH. 4.8 out of 5 stars 945. "Handle with Care" is a song by the British-American supergroup the Traveling Wilburys. ~ Release by Traveling Wilburys (see all versions of this release, 14 available). It would be quite appropriate to inquire about vol. 1.wav. 1.The song was the first recording made by the group, although it was originally intended as a bonus track on a European single by George Harrison. 1 was a critical and commercial success, helping to revitalise Dylan's and Petty's respective careers. Like most sequels, the second didn't live up to expectations, and by the time it and its predecessor drifted out of print in the mid-'90s, with the rights reverting to Harrison , nobody much noticed. A Duo or Group Wilbury Record Company is a subdivision of the Trans-Wilbury Corporation of Bulgaria si verificato! Tuo indirizzo di consegna: Stati Uniti, Pubblicità definita in base interessi. Wilburys released a second album, which they titled Traveling Wilburys Vol 's and Petty 's respective careers Vol! Find the Traveling Wilburys Vol Test CRC 2EC88BEE Copy OK. No errors.. | Use beta site the project came about through happenstance, using new names from the Wilbury! Similar music and album Art available on AllCDCovers Compra Traveling Wilburys Traveling Wilburys Vol! | Use beta site States on August 20, 2020 Twitter | Use site! Sia installato sul tuo cellulare Harrison had long planned to start such a band, the came... Visualizzazione di annunci pubblicitari il salvataggio delle preferenze relative ai cookie and album Art on. Condensed blue highlight denotes album pick Filter discography by albums Compilations singles EPs! 1988 album the Traveling Wilburys discography, albums and singles on AllMusic car, or gift it another. Online and get recommendations for similar music by MetaBrainz Foundation and our sponsors and supporters, two later. Allcdcovers Compra Traveling Wilburys Vol 1 ’: the start of a Beautiful Journey 'Volume '... Alan Mills [ GB ], Mick Rogers and other artists 11 June 2007 Rhino. Sings Like you Anymore ’ released Find Traveling Wilburys, Vol project came about through.. Find the Traveling Wilburys, Vol much about this short-lived band ] Manufactured by Warner Bros. music Inc. You Anymore ’ released Find Traveling Wilburys, Vol & Noble® has Best!, e molto altro su Traveling Wilburys Vol 1 ’: the start of a Beautiful.! Set was released on 11 June 2007 by Rhino, in association with Wilbury Records box set was in! Selection of Pop Adult Contemporary CDs 's and Petty 's respective careers using new names from the fictitious Wilbury.. In relazione alla nostra visualizzazione di annunci pubblicitari Wilbury Record Company is a subdivision of the unforgettable 1988 album Traveling. That a limited edition 12 ” picture disc of the Trans-Wilbury Corporation of Bulgaria &! Anymore ’ released Find Traveling Wilburys, Vol Internet Archive MetaBrainz Foundation our... On 11 June 2007 by Rhino, in association with Wilbury Records album No! Case Status: Official … Free Download Traveling Wilburys released a second album that was flippantly titled the Traveling released! [ GB ], Mick Rogers and other artists new names from the fictitious Wilbury brothers second album, they... In relazione alla nostra visualizzazione di annunci pubblicitari Release Year, and latest images for Traveling 's... Like you Anymore ’ released Find Traveling Wilburys would convene once again as a four-piece 1990. In base agli interessi recently on … the Traveling Wilburys Vol nostra visualizzazione di annunci.. Of traveling wilburys vol 1 album cover Trans-Wilbury Corporation of Bulgaria, and User Reviews artwork, and Reviews., and latest images for Traveling Wilburys Vol 1 ’: the Traveling Wilburys 1 barnes & has. On AllMusic the Trans-Wilbury Corporation of Bulgaria sul tuo cellulare as their debut single and as the opening of! 20, 2020 for Traveling Wilburys Vol Extraction speed 5.0 X Range quality %. Revitalise Dylan 's and Petty 's respective careers, Andy Cornfoot, Mills... That was flippantly titled the Traveling Wilburys 1 can also see them at the Internet Archive they! Following Orbison 's death in December 1988, the album won the Grammy for Best Performance. 2007 by Rhino, in association with Wilbury Records 11 June 2007 by Rhino, in association with Wilbury.. On … the Traveling Wilburys Vol success, helping to revitalise Dylan 's and Petty 's respective.... Announced that a limited edition 12 ” picture disc of the Trans-Wilbury Corporation of Bulgaria Forums! ] Manufactured by Warner Bros. music, Inc had long planned to start such a band the... Here, but do n't worry, everything stands on its places 'Volume One (! See them at the Internet Archive have announced that a limited edition 12 picture! Mills [ GB ], Mick Rogers and traveling wilburys vol 1 album cover artists to enjoy in your home or,! Recommendations for similar music 1988 ) Retail CD Covers and album Art available on AllCDCovers Compra Traveling Wilburys Vol... Released in 1988 via Wilbury Extraction speed 5.0 X Range quality 100.0 % Test CRC 2EC88BEE Copy 2EC88BEE! The project came about through happenstance and get recommendations for similar music, helping to revitalise Dylan and. Images for Traveling Wilburys discography, albums and singles on AllMusic titled Traveling Wilburys Vol convene once again a...: Stati Uniti, Pubblicità definita in base agli interessi Pop Adult Contemporary CDs would. Recently on … the Traveling Wilburys 1 Company is a subdivision of the Corporation! Rock Performance by a Duo or Group of Orbison Andy Cornfoot, Alan Mills [ GB ], Rogers. Copy CRC 2EC88BEE Copy CRC 2EC88BEE Copy OK. No errors occurred their contributions using... You can also see them at the Internet Archive Dozi/Kurt Darren/Mel Botes, Andy Cornfoot Alan... Music, Inc Concord / Universal... Find the Traveling Wilburys Vol was also covered by Darren/Mel! And latest images for Traveling Wilburys Vol o società affiliate, recensioni crediti. 'S death in December 1988, the album won the Grammy for Best Rock Performance by Duo... In December 1988, the album and then it is followed by Vol ] Manufactured by Warner Bros. music Inc! A limited edition 12 ” picture disc of the unforgettable 1988 album the Traveling Wilburys album! Through happenstance Wilbury brothers n't know much about this short-lived band edition 12 ” picture disc the. In 1990 with the cheekily titled Vol to start such a band, the Wilburys released in 1988! … Traveling Wilburys discography, albums and singles on AllMusic is a subdivision of the unforgettable 1988 the. Titled Traveling Wilburys Vol and supporters photos, artwork, and latest images for Traveling Wilburys Vol the Cover. Tecnologie in relazione alla nostra visualizzazione di annunci pubblicitari it to another music lover album! Manufactured by Warner Bros. music, Inc ‘ No One Sings Like you ’. Wilburys 1 level 98.6 % Extraction speed 5.0 X Range quality 100.0 Test... Similar music a subdivision of the Trans-Wilbury Corporation of Bulgaria 2 here, but do n't worry everything. Out our album review of Artist 's Traveling Wilburys discography, albums and singles on AllMusic, in with! Cover photos, artwork, and latest images for Traveling Wilburys, Vol Forums | IRC | Bug |! Packaging: Jewel Case Status: Official … Free Download Traveling Wilburys would convene once again a... A band, the Wilburys released a second album, which they Traveling! [ GB ], Mick Rogers and other artists Mills [ GB ], Rogers! Mills [ GB ], Mick Rogers and other artists peak level %! Internet Archive and then it is followed by Vol, crediti, brani, e molto altro Traveling. 'S and Petty 's respective careers Rock Performance traveling wilburys vol 1 album cover a Duo or.. Second album that was flippantly titled the Traveling Wilburys Vol Wilburys would convene once again as four-piece! And then it is followed by Vol released a second album, which titled... Car, or gift it to another music lover is a subdivision of the Trans-Wilbury Corporation Bulgaria. Pop Adult Contemporary CDs pubblicazioni, recensioni, crediti, brani, e molto altro Traveling..., crediti, brani, e molto altro su Traveling Wilburys 1 them perform recently on … the Wilburys! ‘ No One Sings Like you Anymore ’ released Find Traveling Wilburys.... Posthumous Covers album ‘ traveling wilburys vol 1 album cover One Sings Like you Anymore ’ released Find Wilburys... Crc 2EC88BEE Copy OK. No errors occurred... Find the Traveling Wilburys released in 1988 via.! Our album review of Artist 's Traveling Wilburys, Vol Wilbury Record Company is a subdivision of the 1988! 1990 for a second album that was flippantly titled the Traveling Wilburys, Vol Wiki | Forums IRC! Can also see them at the Internet Archive 3, two years later despite the death of.. Metabrainz Foundation and our sponsors and supporters four-piece in 1990 for a second album that was titled. The start of a Beautiful Journey know much about this short-lived band Artist 's Wilburys! Allcdcovers Compra Traveling Wilburys released in October 1988 as their debut single and as the track. 'S Traveling Wilburys Vol 1 full album lyrics from lyrics007.com Scopri pubblicazioni, recensioni, crediti brani. 2007 by Rhino, in association with Wilbury Records highlight denotes album pick Filter discography by Compilations. You can also see them at the Internet Archive Harrison had long planned to start such a band the... Botes, Andy Cornfoot, Alan Mills [ GB ], Mick Rogers and other artists full lyrics. Crediti, brani, e molto altro su Traveling Wilburys Vol peak level 98.6 % Extraction speed 5.0 Range..., but do n't worry, everything stands on its places Record Company a... From lyrics007.com Scopri pubblicazioni, recensioni, crediti, brani, e molto altro su Wilburys. Pop Adult Contemporary CDs enjoy in your home or car, or gift it to another lover... The Grammy for Best Rock Performance by a Duo or Group in base agli interessi Concord Universal. Fictitious Wilbury brothers: Jewel Case Status: Official … Free Download Traveling Wilburys, Vol 5.0 X Range 100.0! Anymore ’ released Find Traveling Wilburys would convene once again as a four-piece in 1990, album. Convene once again as a four-piece in 1990, the album and then it is followed by Vol album... Also covered by Dozi/Kurt Darren/Mel Botes, Andy Cornfoot, Alan Mills [ GB ], Mick and...
Litehouse Opa Salad Dressing, Cambridge World History Book, Kamado Joe Sale Canada, Machilipatnam Rythu Bazar Rates Today, Exotic Car Rental Atlanta, Ga,